Patel Ki Punjabi Shaadi 2017 720p DVD Hindi (www.TodayPK.se)

Watch Free HD           Download Now
Torrent name: Patel Ki Punjabi Shaadi 2017 720p DVD Hindi (www.TodayPK.se)
File size: 766.17 MB
Seeds: 1
Leechs: 0
Update S/L
Last scrape: 12 July 2018 18:06:17
Downloaded: 938
Categories: Bollywood Movies 2017
Uploader: TodayPk.se
Download Patel Ki Punjabi Shaadi 2017 720p DVD Hindi (www.TodayPK.se)
Magnet


Format : Matroska 
Format version : Version 4 / Version 2 
File size : 766 MiB 
Duration : 2 h 0 min 
Overall bit rate : 892 kb/s 
Movie name : Patel Ki Punjabi Shaadi 2017 

Video 
Format : AVC 
Codec ID : V_MPEG4/ISO/AVC 
Duration : 2 h 0 min 
Bit rate : 800 kb/s 
Width : 1 280 pixels 
Height : 544 pixels 
Display aspect ratio : 2.35:1 
Frame rate mode : Constant 
Frame rate : 23.976 (24000/1001) FPS 
Stream size : 687 MiB (90%) 
Writing library : x264 
Language : Hindi 

Audio 
Format : AAC 
Duration : 2 h 0 min 
Bit rate : 89.3 kb/s 
Channel(s) : 6 channels 
Channel positions : Front: L C R, Side: L R, LFE 
Sampling rate : 44.1 kHz 
Frame rate : 43.066 FPS (1024 SPF) 
Stream size : 76.8 MiB (10%) 
Language : Hindi 

Text 
Language : English 


Advertisement
    - udp://tracker.coppersurfer.tk:6969/announce
    - udp://9.rarbg.com:2710/announce
    - udp://p4p.arenabg.com:1337
    - udp://tracker.leechers-paradise.org:6969
    - udp://tracker.internetwarriors.net:1337
    - udp://tracker.opentrackr.org:1337/announce
Tools
Last scrape: 12 July 2018 18:06:17