Super Singh (2017) (Punjabi) DVD-SCR 700mb

Watch Free HD           Download Now
Torrent name: Super Singh (2017) (Punjabi) DVD-SCR 700mb
File size: 670.8 MB
Seeds: 0
Leechs: 0
Update S/L
Last scrape: 30 July 2018 15:44:28
Downloaded: 77
Categories: Punjabi
Uploader: TodayPk.se
Download Super Singh (2017) (Punjabi) DVD-SCR 700mb
Magnet


Video 
ID : 1 
Codec ID : V_MPEG4/ISO/AVC 
Duration : 2 h 31 min 
Bit rate : 512 kb/s 
Width : 640 pixels 
Height : 480 pixels 
Display aspect ratio : 2.2:1 
Original display aspect ratio : 2.2:1 
Frame rate mode : Constant 
Frame rate : 25.000 FPS 
Stream size : 564 MiB (84%) 
Writing library : x264 core 77 

Audio 
Format : AAC 
Duration : 2 h 31 min 
Bit rate : 96.0 kb/s 
Channel(s) : 2 channels 
Channel positions : Front: L R 
Sampling rate : 44.1 kHz 
Frame rate : 43.066 FPS (1024 spf) 
Compression mode : Lossy 
Stream size : 104 MiB (16% 



Advertisement
    - udp://tracker.openbittorrent.com:80/announce
    - udp://tracker.opentrackr.org:1337/announce
Tools
Last scrape: 30 July 2018 15:44:28